pb pc engine CD



  • Bonjour,
    j' ai un souci pour faire tourner Akamajou Dracula rondo of blood pc engine CD sur recalbox dernière version raspberry 3b.

    J'ai beau telecharger différentes images iso, cue, bin, les dezipper dans tous les sens, les renommes en minuscule, en abrégé pour éviter les caractères spéciaux, retaper le CUE, changer le CORE, supprimer la gamelist, enlever le "rembobinage": rien à faire...

    Serait-ce un problème de BIOS? Je pensais que nativement la dernière version de recalbox avait déjà la bonne version...

    Merci pour votre aide



  • Bonjour,

    Non Recalbox n'inclut pas les bios, et effectivement, il faut un bios pour la pc engine CD
    dont voici les infos :

    • md5: ff1a674273fe3540ccef576376407d1d

    • nom du fichier :syscard3.pce

    fichier a placer dans le répertoire bios du share.



  • @cissou said in pb pc engine CD:

    syscard3.pce

    Merci à toi cissou. J'ai fait ce que tu m'as dit, j'ai aussi copier les bios dans les roms. Cependant ça ne marche toujours pas.

    j'ai tenté de changer le CORE, jai désactivé le thème recalbox, renommer le fichier, rien n'y fait. voici la copie du CUE (le .iso a le même nom):

    file "akumajou.iso" binary
    TRACK 01 AUDIO
    INDEX 01 00:00:00
    TRACK 02 MODE1/2352
    PREGAP 00:03:00
    INDEX 01 00:48:65
    TRACK 03 AUDIO
    PREGAP 00:02:00
    INDEX 01 03:04:14
    TRACK 04 AUDIO
    INDEX 00 04:48:48
    INDEX 01 04:50:48
    TRACK 05 AUDIO
    INDEX 00 05:51:67
    INDEX 01 05:53:67
    TRACK 06 AUDIO
    INDEX 00 07:28:09
    INDEX 01 07:30:09
    TRACK 07 AUDIO
    INDEX 00 08:51:61
    INDEX 01 08:53:61
    TRACK 08 AUDIO
    INDEX 00 09:56:35
    INDEX 01 09:58:35
    TRACK 09 AUDIO
    INDEX 00 12:54:60
    INDEX 01 12:56:60
    TRACK 10 AUDIO
    INDEX 00 14:38:28
    INDEX 01 14:40:28
    TRACK 11 AUDIO
    INDEX 00 17:19:05
    INDEX 01 17:21:05
    TRACK 12 AUDIO
    INDEX 00 19:00:58
    INDEX 01 19:02:58
    TRACK 13 AUDIO
    INDEX 00 21:31:18
    INDEX 01 21:33:18
    TRACK 14 AUDIO
    INDEX 00 23:58:69
    INDEX 01 24:00:69
    TRACK 15 AUDIO
    INDEX 00 27:38:51
    INDEX 01 27:40:51
    TRACK 16 AUDIO
    INDEX 00 30:04:10
    INDEX 01 30:06:10
    TRACK 17 AUDIO
    INDEX 00 33:19:56
    INDEX 01 33:21:56
    TRACK 18 AUDIO
    INDEX 00 34:49:29
    INDEX 01 34:51:29
    TRACK 19 AUDIO
    INDEX 00 36:31:49
    INDEX 01 36:33:49
    TRACK 20 AUDIO
    INDEX 00 38:31:50
    INDEX 01 38:33:50
    TRACK 21 AUDIO
    INDEX 00 42:33:12
    INDEX 01 42:35:12
    TRACK 22 MODE1/2352
    PREGAP 00:03:00
    INDEX 01 46:48:62

    Merci de ton aide


  • Banned

    @ien-ien pas besoin de cue avec un iso, essaye de lancer l'iso

    et ça sert à rien de copier les bios dans le répertoire de roms



  • Merci de ta réaction . Cependant, l'iso se lancerait quand même , même si les bois et le cue sont dans le même dossier...? J ai vu à longueur de forum qu'il fallait éditer la 1ère ligne du cue. Je vais tenter ce que tu dis. Les bios faut les mettre tels quel dans le fichier bios ou les mettre dans un fichier pc engine cd?


  • Staff
    Developer
    Global moderator
    Team

    @ien-ien tu as été lire la doc dans le wiki ?


  • Banned

    @ien-ien merci de faire un minimum d'effort et comme le dit @OyyoDams de lire le wiki, la doc et pas en diagonale.



  • Après avoir obtenu les bios, je dois les renommer selon les instructions du wiki? C est pas clair pour moi , je copie/colle entièrement la ligne en écrasant le nom du bios?



  • après avoir vu la video et vu le wiki, j'avais mal ajouté les bios. Je suis passé par l'interface web et les bios sont validés. Mais l'iso ne fonctionne toujours pas...


  • Staff
    Developer
    Global moderator
    Team

    @ien-ien change d'iso...



  • Effectivement, je crois qu il ne me resterait que ça à faire. Je n en trouve pas d autres viables ( je suis sur 3 types de fichiers différemment fouttus).



  • En y repensant, j avais réussi à faire fonctionner cet iso sur un émulateur sur mon pc en passant par daemon tool. Donc l'iso devrait fonctionner... est ce que quand j ajoute les bios sur l'interface, y a t il quelque chose à valider? J'en ai pas vu ça sur la vidéo.


  • Staff
    Developer
    Global moderator
    Team

    @ien-ien oui enfin ton émulateur PC ce n'est pas forcément le même que celui sur Recalbox, donc ça ne veut rien dire... D'autres roms fonctionnent ?



  • J ai telechargé dbz depuis un post d'un type de la communauté sur YouTube , rien ne fonctionne. Je me suis servi de l'interface web en vérifiant le md5 du syscard 3 grâce à l'outil. Tout concorde , l'interface l'intègre dans un premier temps mais ne semble pas l'enregistrer vraiment , il ne me Le Check pas dans la liste en dessous. Je continue de changer les core et j ai remis le thème de base comme conseillé. Non, je pense que le bios ne s'installe pas en fait. Le bios devrait au moins se lancer non? Même si l iso est mauvais


  • Staff
    Developer
    Global moderator
    Team

    @ien-ien t'as pas comme l'impression que c'est pas vraiment très propre tout ça ?


  • Banned

    @ien-ien said in pb pc engine CD:

    Non, je pense que le bios ne s'installe pas en fait. Le bios devrait au moins se lancer non? Même si l iso est mauvais

    Arrête de faire des spéculations creuses alors que de toute évidence tu ne comprends pas trop ce que tu fais.
    Et récupère des isos propres, pas des vieux trucs qui trainent dans des comments youtube dont tu n'as aucune garantie qu'ils fonctionnent.

    Commence déjà par aller voir si ton bios a bien été copié localement dans ta partition share/bios. normalement oui.
    Ensuite est ce que oui ou non tu t'es débarassé de ton cue et lance uniquement l'iso ?



  • @voljega non si je vire Le cue , le système ne reconnaît plus le jeu et il n affiche même plus la console. Oui je suis allé voir dans Share si le bios s'affichait et je l'ai ajouté du coup car il ne s affichait pas. Et l'iso dbz fonctionne mais pas chez moi.


  • Staff
    Developer
    Global moderator
    Team

    @ien-ien tu peux faire une archive support ?



  • @oyyodams excuse moi je ne comprend pas ce que tu veux dire? J ai vu qq chose sur le wiki là dessus , pas sur de bien comprendre.


  • Banned

    @ien-ien ben va relire, c'est pas bien compliqué


Log in to reply
 

Want to support us ?

355
Online

81.4k
Users

22.2k
Topics

161.3k
Posts